Rihanna - Umbrella feat. Jay-Z | Christina Perri - A Thousand Years | LEvo - Poďme zmeniť svet

Details for this torrent 

Frank.and.Lola.2016.1080p.BluRay.H264
Type:
Video > Handheld
Files:
9
Size:
1.68 GiB (1805375282 Bytes)
Info:
IMDB
Uploaded:
2017-02-08 17:55:27 GMT
By:
samick_
Seeders:
0
Leechers:
1
Comments
0  

Info Hash:
991E48F30FC1A5DAD4E2584B4EA73F1284FAA5F6




(Problems with magnets links are fixed by upgrading your torrent client!)
Video
ID                                       : 1
Format                                   : AVC
Format/Info                              : Advanced Video Codec
Format profile                           : [email protected]
Format settings, CABAC                   : Yes
Format settings, ReFrames                : 4 frames
Codec ID                                 : avc1
Codec ID/Info                            : Advanced Video Coding
Duration                                 : 1h 27mn
Bit rate                                 : 2 500 Kbps
Width                                    : 1 920 pixels
Height                                   : 808 pixels
Display aspect ratio                     : 2.40:1
Frame rate mode                          : Constant
Frame rate                               : 23.976 (23976/1000) fps
Color space                              : YUV
Chroma subsampling                       : 4:2:0
Bit depth                                : 8 bits
Scan type                                : Progressive
Bits/(Pixel*Frame)                       : 0.067
Stream size                              : 1.53 GiB (92%)
Writing library                          : x264 core 148 r2597M e86f3a1

Audio
ID                                       : 2
Format                                   : AAC
Format/Info                              : Advanced Audio Codec
Format profile                           : LC
Codec ID                                 : 40
Duration                                 : 1h 27mn
Bit rate mode                            : Constant
Bit rate                                 : 224 Kbps
Channel(s)                               : 2 channels
Channel(s)_Original                      : 6 channels
Channel positions                        : Front: L C R, Side: L R, LFE
Sampling rate                            : 48.0 KHz
Frame rate                               : 46.875 fps (1024 spf)
Compression mode                         : Lossy
Stream size                              : 140 MiB (8%)
Language                                 : English
Default                                  : Yes
Alternate group                          : 1
 
http://imdb.com/title/tt1290138/

 
http://view.imageflings.com/?image_id=9083&ref=pb
 
http://view.imageflings.com/?image_id=9084&ref=pb
 
http://view.imageflings.com/?image_id=9085&ref=pb
 
http://view.imageflings.com/?image_id=9086&ref=pb
 
http://view.imageflings.com/?image_id=9087&ref=pb
 
http://view.imageflings.com/?image_id=9088&ref=pb